#TITLE:Ki Niem;
#SUBTITLE:;
#ARTIST:Truc Duy & Tony;
#TITLETRANSLIT:Ki Niem;
#SUBTITLETRANSLIT:;
#ARTISTTRANSLIT:Truc Duy & Tony;
#CREDIT:;
#BANNER:Ki Niem-bn.png;
#BACKGROUND:Ki Niem-bg.png;
#LYRICSPATH:;
#CDTITLE:pm4cd.png;
#MUSIC:Ki Niem.mp3;
#OFFSET:-0.060;
#SAMPLESTART:53.610;
#SAMPLELENGTH:20.000;
#SELECTABLE:YES;
#BPMS:0.000=146.010;
#STOPS:;
#BGCHANGES:;
// cache tags:
#FIRSTBEAT:2.250;
#LASTBEAT:518.250;
#SONGFILENAME:Songs/Music V.I.P ^_^/Ki Niem/Ki Niem.sm;
#HASMUSIC:1;
#HASBANNER:1;
#MUSICLENGTH:224.086;
// end cache tags

//---------------dance-single - ----------------
#NOTES:
     dance-single:
     :
     Hard:
     9:
     0.859,0.896,1.000,0.647,1.000,767.000,418.000,145.000,0.000,142.000:
0000
0000
0000
0000
0000
0000
0000
0000
0000
0100
0000
0100
0000
0010
0000
0010
,
0000
2002
0000
0000
0000
0000
3003
0010
0000
1000
0000
1000
0000
0001
0000
0001
,
0000
2020
0000
0000
0000
0000
3030
1000
0000
0001
0000
0001
0000
0010
0000
0010
,
0000
2200
0000
0010
0000
0000
3300
1000
0000
0000
0000
0100
0000
0000
0000
0010
,
0000
1000
0000
0010
0000
0100
0000
1000
0000
0100
0000
0100
0000
0010
0000
0010
,
0000
2200
0000
0000
0000
0000
3300
0001
0000
0100
0000
0100
0000
1000
0000
1000
,
0000
0220
0000
0000
0000
0000
0330
0100
0000
0010
0000
0010
0000
0001
0000
0001
,
0000
0220
0000
1000
0000
0000
0330
0001
0000
0000
0000
0100
0000
0000
0000
0202
,
0000
0000
0000
0010
0000
0303
0000
1100
0101
1100
0000
1100
0000
0110
0000
0110
,
0000
2002
0000
0000
0000
0000
0000
3113
0000
0110
0000
1001
0000
1001
0000
0011
,
0000
0022
0000
0000
0000
0000
0000
1133
0000
1100
0000
0110
0000
0110
0000
0011
,
0000
0022
0000
1000
0000
0000
0000
0133
0000
0000
0000
0001
0000
0000
0000
0020
,
0000
0000
0000
0000
0000
2032
0000
0000
0000
0110
0000
3113
0000
1010
0000
1010
,
0000
0202
0000
0000
0000
0000
0000
1313
0000
1010
0000
1100
0000
1100
0000
0110
,
0000
0220
0000
0000
0000
0000
0000
1331
0000
1001
0000
0011
0000
0011
0000
1001
,
0000
2002
0000
0110
0000
0000
0000
3113
0000
0000
0000
0001
0000
0000
0000
1000
,
0000
0000
0000
0010
0000
0000
0000
0011
0101
0011
0000
0000
1100
0000
0000
0011
,
0000
1111
0000
0000
0000
0010
0000
0000
0000
1100
0000
0000
0000
0010
0000
0000
,
0000
0101
0000
0000
0000
1100
0000
0000
0000
1010
0000
0000
0000
1000
0000
0000
,
0000
0120
0000
0000
0000
0001
0000
0000
0000
0131
0000
0000
0000
0010
0000
0000
,
0000
2001
0000
0000
0000
0100
0000
0000
0000
3101
0000
0001
0000
0010
0000
0100
,
0000
1100
0000
0000
0000
0100
0000
0000
0000
0101
0000
0000
0000
0010
0000
0000
,
0000
1001
0000
0000
0000
1100
0000
0000
0000
0101
0000
0000
0000
0100
0000
0010
,
0000
1100
0000
0000
0000
1000
0000
0000
0000
1010
0000
0000
0000
0010
0000
0000
,
0000
0110
0000
0000
0000
0001
0000
1100
1010
1100
0000
0100
0000
0011
0000
0100
,
0000
1010
0000
0000
0000
0001
0000
0000
0000
0101
0000
0000
0000
0001
0000
0000
,
0000
0011
0000
0000
0000
1010
0000
0000
0000
1001
0000
0000
0000
1100
0000
0000
,
0000
0120
0000
0000
0000
0100
0000
0000
0000
0131
0000
0000
0000
0100
0000
0000
,
0000
1001
0000
0000
0000
0010
0000
0000
0000
0011
0000
1000
0000
0001
0000
0100
,
0000
0012
0000
0000
0000
0010
0000
0100
0000
1013
0000
0000
0000
1000
0000
0000
,
0000
1100
0000
0000
0000
1010
0000
0000
0000
0110
0000
0000
0000
0010
0000
0100
,
0000
1002
0000
0000
0000
0010
0000
0000
0000
1100
0000
0000
0000
0100
0000
0000
,
0000
2013
0000
0000
0101
0000
0000
0110
0011
3110
0000
0010
0000
0011
0000
0100
,
0000
2002
0000
0000
0000
0000
0000
3003
0000
0101
0000
0001
0000
0110
0000
1000
,
0000
0220
0000
0000
0000
0000
0000
0330
0000
1100
0000
0001
0000
1010
0000
0100
,
0000
2002
0000
0110
0000
0000
0000
3113
0000
0000
0000
0110
0000
0000
0000
0101
,
0000
0000
0000
0000
0000
1100
0000
0000
0000
0101
0000
0010
0000
1100
0000
0100
,
0000
0220
0000
0000
0000
0000
0000
0330
0000
1100
0000
0100
0000
0101
0000
0001
,
0000
0022
0000
0000
0000
0000
0000
0033
0000
0110
0000
0100
0000
0101
0000
0010
,
0000
0220
0000
1001
0000
0000
0000
1331
0000
0000
0000
0011
0000
0000
0000
0110
,
0000
0000
0000
1100
0000
0110
0000
0101
0011
0101
0000
0010
0000
0110
0000
0100
,
0000
2200
0000
0010
0000
0001
0000
3310
0000
1001
0000
0010
0000
0110
0000
0100
,
0000
0202
0000
1000
0000
1010
0000
1303
0000
0011
0000
0010
0000
1010
0000
0100
,
0000
0202
0000
1010
0000
0000
0000
1313
0000
0000
0000
0110
0000
0000
0000
1001
,
0000
0000
0000
0101
0000
0110
0000
1000
0000
0110
0000
0100
0000
1100
0000
0010
,
0000
2020
0000
0100
0000
0001
0000
3130
0000
0101
0000
0010
0000
1100
0000
0010
,
0000
0022
0000
1000
0000
0100
0000
1033
0000
0101
0000
0110
0000
1010
0000
0101
,
0000
0022
0000
1100
0000
0000
0000
1133
0000
0000
0000
0110
0000
0000
0000
2020
,
0000
0000
0000
0000
0101
0000
0000
0101
0101
3131
0000
0010
0000
1100
0000
0100
,
0000
0021
0000
0000
0000
1000
0000
0101
0000
0000
0000
1100
0000
1000
0000
1001
,
0000
0100
0000
1001
0000
0101
0000
1000
0000
1100
0000
0100
0000
1031
0000
0100
,
0010
1001
0000
0100
0000
0011
0000
0100
0000
1010
0000
0001
0000
1010
0000
0100
,
0000
1100
0000
0100
0010
1001
0000
1000
0000
0110
0000
0001
0000
1100
0000
0010
,
0000
1001
0000
0100
0000
1010
0000
0010
0000
0011
0000
1000
0000
0110
0000
0100
,
0000
0101
0000
0010
0000
1100
0000
0100
0000
0010
0000
0101
0000
1000
0000
0010
,
0000
0011
0000
0100
0000
1001
0000
0100
0000
0101
0000
0010
0000
1100
0000
1000
,
0000
0101
0000
0010
0000
1001
0000
0011
0110
1100
0000
0100
0000
0001
0000
0001
,
0000
2200
0000
0000
0000
0000
0000
3301
0000
0100
0000
0100
0000
1000
0000
1000
,
0000
0220
0000
0000
0000
0000
0000
1330
0000
0010
0000
0010
0000
0100
0000
0100
,
0000
0202
0000
0010
0000
0000
0000
1303
0000
0000
0000
0100
0000
0000
0000
0001
,
0000
0000
0000
1000
0000
0100
0000
0010
0000
0001
0000
0001
0000
0010
0000
0010
,
0000
0022
0000
0000
0000
0000
0000
1033
0000
0010
0000
0010
0000
1000
0000
1000
,
0000
0202
0000
0000
0000
0000
0000
0313
0000
0001
0000
0001
0000
1000
0000
1000
,
0000
2020
0000
0001
0000
0000
0000
3130
0000
0000
0000
0001
0000
0000
0000
1000
,
0000
0000
0000
0100
0000
0000
0000
0110
1001
0110
0000
1010
0000
0101
0000
0110
,
0000
2002
0000
0000
0000
0000
0000
3013
0000
1001
0000
1010
0000
1100
0000
0101
,
0000
2020
0000
0000
0000
0000
0000
3031
0000
1010
0000
1010
0000
0101
0000
0101
,
0000
0220
0000
1000
0000
0000
0000
0331
0000
0000
0000
0010
0000
0000
0000
0100
,
0000
0000
0000
0010
0000
0001
0000
0010
0000
1001
0000
1001
0000
1010
0000
0101
,
0000
0022
0000
0000
0000
0000
0000
1033
0000
0110
0000
0110
0000
1100
0000
0011
,
0000
2020
0000
0000
0000
0000
0000
3031
0000
0101
0000
1010
0000
1100
0000
0011
,
0000
0220
0000
1000
0000
0000
0000
0331
0000
0000
0000
0010
0000
0000
0000
0100
,
0000
0000
0000
1010
0000
0000
0000
1100
0110
0011
0000
0000
1100
0000
0000
1100
,
0000
0110
0000
0000
0000
0001
0000
0000
0000
1010
0000
0000
0000
0100
0000
0000
,
0000
0011
0000
0000
0000
1100
0000
0000
0000
1001
0000
0000
0000
0002
0000
0000
,
0000
0110
0000
0000
0000
0103
0000
0000
0000
1100
0000
0000
0000
0001
0000
0000
,
0000
2010
0000
0000
0000
0110
0000
0000
0000
0021
0000
3100
0000
1000
0000
0100
,
0000
1031
0000
0000
0000
0010
0000
0000
0000
0101
0000
0000
0000
0001
0000
0000
,
0000
0110
0000
0000
0000
0101
0000
0000
0000
1200
0000
0000
0000
1000
0000
0010
,
0000
1301
0000
0000
0000
0100
0000
0000
0000
0101
0000
0000
0000
0010
0000
0000
,
0000
0110
0000
0000
0000
0001
0000
0101
0110
1010
0000
0000
0011
0000
0000
1100
,
0000
0011
0000
0000
0000
0100
0000
0000
0000
1010
0000
0000
0000
0010
0000
0000
,
0000
0011
0000
0000
0000
1010
0000
0000
0000
1100
0000
0000
0000
0100
0000
0000
,
0000
0210
0000
0000
0000
0001
0000
0000
0000
1310
0000
0000
0000
0010
0000
0000
,
0000
0101
0000
0000
0000
0110
0000
0000
0000
0011
0000
0100
0000
1100
0000
0010
,
0000
0101
0000
0000
0000
0010
0000
0100
0000
0110
0000
0000
0000
0001
0000
0000
,
0000
1010
0000
0000
0000
0011
0000
0000
0000
0101
0000
0000
0000
0100
0000
0001
,
0000
1020
0000
0000
0000
0100
0000
0000
0000
1100
0000
0000
0000
0001
0000
0000
,
0000
1032
0000
0000
0110
0000
0000
1100
0110
1103
0000
0100
0000
0101
0000
0100
,
0000
0022
0000
0000
0000
0000
0000
0033
0000
0110
0000
0010
0000
0011
0000
0100
,
0000
2020
0000
0000
0000
0000
0000
3030
0000
0110
0000
0010
0000
0101
0000
1000
,
0000
2002
0000
0110
0000
0000
0000
3113
0000
0000
0000
0011
0000
0000
0000
0110
,
0000
0000
0000
0000
0000
1100
0000
0000
0000
1001
0000
0010
0000
0101
0000
0010
,
0000
0202
0000
0000
0000
0000
0000
0303
0000
1010
0000
0100
0000
1001
0000
0010
,
0000
2200
0000
0000
0000
0000
0000
3300
0000
1010
0000
0010
0000
0011
0000
1000
,
0000
0202
0000
1010
0000
0000
0000
1313
0000
0000
0000
1001
0000
0000
0000
0101
,
0000
0000
0000
0011
0000
1100
0000
0110
0101
0110
0000
0001
0000
1100
0000
0010
,
0000
2020
0000
0100
0000
0001
0000
3130
0000
0101
0000
0100
0000
0011
0000
1000
,
0000
0022
0000
0100
0000
1100
0000
0133
0000
1010
0000
0100
0000
0011
0000
1000
,
0000
2002
0000
0110
0000
0000
0000
3113
0000
0000
0000
1100
0000
0000
0000
0011
,
0000
0000
0000
1001
0000
1010
0000
0100
0000
0011
0000
1000
0000
0101
0000
0001
,
0000
0220
0000
1000
0000
0001
0000
1330
0000
0011
0000
0010
0000
1001
0000
0100
,
0000
2200
0000
0001
0000
0011
0000
3301
0000
0101
0000
1100
0000
0110
0000
0011
,
0000
2002
0000
0110
0000
0000
0000
3113
0000
0000
0000
0101
0000
0000
0000
0022
,
0000
0000
0000
0000
1100
0000
0000
1100
1100
1133
0000
0001
0000
0010
0000
0100
,
0000
0022
0000
0000
0000
0000
0000
0033
0000
1000
0000
0100
0000
0001
0000
0010
,
0000
2020
0000
0000
0000
0000
0000
3030
0000
0001
0000
1000
0000
0010
0000
0100
,
0000
2002
0000
0010
0000
0000
0000
3103
0000
0000
0000
0001
0000
0000
0000
0010
,
0000
0000
0000
0000
0000
1000
0000
0000
0000
0001
0000
0001
0000
0010
0000
0010
,
0000
2200
0000
0000
0000
0000
0000
3300
0000
0100
0000
0100
0000
0001
0000
0001
,
0000
2020
0000
0000
0000
0000
0000
3030
0000
0001
0000
0001
0000
0010
0000
1000
,
0000
0022
0000
0100
0000
0000
0000
1033
0000
0000
0000
0001
0000
0000
0000
0100
,
0000
0000
0000
0001
0000
0010
0000
1100
0110
1011
0000
1010
0000
0111
0000
0011
,
0000
1220
0000
0000
0000
0000
0000
0330
0000
1011
0000
1100
0000
0111
0000
1001
,
0000
1022
0000
0000
0000
0000
0000
0033
0000
1100
0000
0110
0000
1001
0000
0101
,
0000
0110
0000
1100
0000
0000
0000
0110
0000
0000
0000
0101
0000
0000
0000
1010
,
0000
0000
0000
0000
0000
1001
0000
0000
0000
1011
0000
1100
0000
1110
0000
0101
,
0000
2021
0000
0000
0000
0001
0000
3031
0000
1110
0000
0101
0000
1011
0000
1100
,
0000
0122
0000
0000
0000
1000
0000
1033
0000
1101
0000
0011
0000
1110
0000
1010
,
0000
2102
0000
0110
0000
0000
0000
3113
0000
0000
0000
1001
0000
0000
0000
1010
,
0000
0000
0000
0101
0000
0000
0000
0101
1010
0110
0000
0000
1010
0000
0000
0101
,
0000
0022
0000
1000
0000
0100
0000
1000
0000
0100
0000
1000
0000
0100
0000
1000
,
0000
0133
0000
1000
0000
0011
0000
1000
0000
0100
0000
0011
0000
0010
0000
1000
,
0000
0110
0000
0001
0000
0100
0000
0010
0000
1000
0000
0001
0000
0010
0000
1000
,
0000
0001
0000
0100
0000
0011
0000
1000
0000
0100
0000
0101
0000
0010
0000
1000
,
0000
0011
0000
1000
0000
0001
0000
1000
0000
0100
0000
0001
0000
1000
0000
0010
,
0000
0100
0000
0010
0000
0110
0000
0001
0000
0010
0000
1001
0000
0010
0000
0100
,
0000
1100
0000
0100
0000
0010
0000
1000
0000
0001
0000
0100
0000
1000
0000
0001
,
0000
0100
0000
0011
0000
1000
0000
0011
1001
1100
0000
0011
0000
0100
0000
1001
,
0000
0220
0000
0000
0000
0000
0000
0000
0000
0330
0000
0000
0000
0000
0000
0000
;

//---------------dance-single - ----------------
#NOTES:
     dance-single:
     :
     Medium:
     1:
     0.000,0.000,0.000,0.000,0.000,0.000,0.000,0.000,0.000,0.000:
0000
0000
0000
0000
;

//---------------dance-single - ----------------
#NOTES:
     dance-single:
     :
     Easy:
     1:
     0.000,0.000,0.000,0.000,0.000,0.000,0.000,0.000,0.000,0.000:
0000
0000
0000
0000
;
